* Dettagli Torrent   globale  | Commenti (0) 


- Richie Sambora - Discografia 1991-2012 [Mp3 320 kbps] Rock -


Download via torrent:
Categoria bittorrent Musica
Descrizione
Richie Sambora - Discografia 1991-2012



Stranger In This Town (1991)

.: Dati Album :.

Anno: 1991                        

.: Tracklist :.

No. Title Writer(s) Length
1. "Rest in Peace" Richie Sambora, David Bryan 3:47
2. "Church of Desire" Sambora 6:07
3. "Stranger in This Town" Sambora, Bryan 6:15
4. "Ballad of Youth" Sambora, Tom Marolda 3:52
5. "One Light Burning" Sambora, Marolda, Bruce Foster 5:47
6. "Mr. Bluesman" (Solo by Eric Clapton) Sambora 5:14
7. "Rosie" Sambora, Jon Bon Jovi, Desmond Child, Diane Warren 4:50
8. "River of Love" Sambora 5:06
9. "Father Time" Sambora, Child 6:06
10. "The Answer" Sambora, Foster 5:07

.: Dati Tecnici :.

General
Complete name                            : D:\Downloads\Richie.Sambora-Discography.1991-2012.MP3.320kbps\1991 - Stranger In This Town\01 - Rest In Peace.mp3
Format                                   : MPEG Audio
File size                                : 8.72 MiB
Duration                                 : 3 min 46 s
Overall bit rate mode                    : Constant
Overall bit rate                         : 320 kb/s
Album                                    : Stranger In This Town
Track name                               : Rest In Peace
Track name/Position                      : 1
Performer                                : Richie Sambora
Genre                                    : Rock
Recorded date                            : 1991
Writing library                          : LAME3.93
Cover                                    : Yes
Cover type                               : Cover (front)
Cover MIME                               : image/jpg

Audio
Format                                   : MPEG Audio
Format version                           : Version 1
Format profile                           : Layer 3
Duration                                 : 3 min 46 s
Bit rate mode                            : Constant
Bit rate                                 : 320 kb/s
Channel(s)                               : 2 channels
Sampling rate                            : 44.1 kHz
Frame rate                               : 38.281 FPS (1152 SPF)
Compression mode                         : Lossy
Stream size                              : 8.63 MiB (99%)
Writing library                          : LAME3.93
Encoding settings                        : -m s -V 4 -q 0

Undiscovered Soul (199



.: Dati Album :.

Anno: 1998                    

.: Tracklist :.

No. Title Writer(s) Length
1. "Made in America" Richie Sambora, Richard Supa 5:34
2. "Hard Times Come Easy" Sambora, Supa 4:34
3. "Fallen From Graceland" Sambora, David Bryan, Supa 5:39
4. "If God Was a Woman" Sambora, Bryan, Supa 4:02
5. "All That Really Matters" Sambora, Supa 4:19
6. "You're Not Alone" Sambora, Thomas Marolda 4:19
7. "In It for Love" Sambora, Supa 4:19
8. "Chained" Sambora, Marolda, Ernie White 3:27
9. "Harlem Rain" Sambora, Supa 5:01
10. "Who I Am" Sambora, Marti Frederiksen 7:09
11. "Downside of Love" Sambora, Bryan, Supa 5:27
12. "Undiscovered Soul" Sambora, Supa 7:17

.: Dati Tecnici :.

General
Complete name                            : D:\Downloads\Richie.Sambora-Discography.1991-2012.MP3.320kbps\1998 - Undiscovered Soul\01 - Made In America.mp3
Format                                   : MPEG Audio
File size                                : 12.8 MiB
Duration                                 : 5 min 35 s
Overall bit rate mode                    : Constant
Overall bit rate                         : 320 kb/s
Album                                    : Undiscovered Soul
Track name                               : Made In America
Track name/Position                      : 1
Performer                                : Richie Sambora
Genre                                    : Rock
Recorded date                            : 1998
Writing library                          : LAME3.93
Cover                                    : Yes
Cover type                               : Cover (front)
Cover MIME                               : image/jpg

Audio
Format                                   : MPEG Audio
Format version                           : Version 1
Format profile                           : Layer 3
Duration                                 : 5 min 35 s
Bit rate mode                            : Constant
Bit rate                                 : 320 kb/s
Channel(s)                               : 2 channels
Sampling rate                            : 44.1 kHz
Frame rate                               : 38.281 FPS (1152 SPF)
Compression mode                         : Lossy
Stream size                              : 12.8 MiB (100%)
Writing library                          : LAME3.93
Encoding settings                        : -m s -V 4 -q 0

Aftermath of the Lowdown (2012)



.: Dati Album :.

Anno: 2012                      

.: Tracklist :.

No. Title Length
1. "Burn the Candle Down" 4:23
2. "Every Road Leads Home to You" 4:40
3. "Taking a Chance on the Wind" 4:47
4. "Nowadays" 4:00
5. "Weathering the Storm" (Sambora, Bernie Taupin) 4:49
6. "Sugar Daddy" 4:37
7. "I'll Always Walk Beside You" 5:03
8. "Seven Years Gone" 5:36
9. "Learning How to Fly With a Broken Wing" (Sambora, Phil Cassens) 4:35
10. "You Can Only Get So High" (Sambora, Cassens) 6:32
11. "World" (Sambora, Bruce Foster) 2:22

.: Dati Tecnici :.

General
Complete name                            : D:\Downloads\Richie.Sambora-Discography.1991-2012.MP3.320kbps\2012 - Aftermath Of The Lowdown\01 - Burn The Candle Down.mp3
Format                                   : MPEG Audio
File size                                : 10.2 MiB
Duration                                 : 4 min 23 s
Overall bit rate mode                    : Constant
Overall bit rate                         : 320 kb/s
Album                                    : Aftermath Of The Lowdown
Track name                               : Burn The Candle Down
Track name/Position                      : 1
Track name/Total                         : 11
Performer                                : Richie Sambora
Genre                                    : Rock
Recorded date                            : 2012
Writing application                      : ExactAudioCopy v1.0b3
Writing library                          : LAME3.93
Cover                                    : Yes
Cover type                               : Cover (front)
Cover MIME                               : image/jpg
DISCID                                   : 9B0C0E0B

Audio
Format                                   : MPEG Audio
Format version                           : Version 1
Format profile                           : Layer 3
Duration                                 : 4 min 23 s
Bit rate mode                            : Constant
Bit rate                                 : 320 kb/s
Channel(s)                               : 2 channels
Sampling rate                            : 44.1 kHz
Frame rate                               : 38.281 FPS (1152 SPF)
Compression mode                         : Lossy
Stream size                              : 10.1 MiB (99%)
Writing library                          : LAME3.93
Encoding settings                        : -m s -V 4 -q 0

.: Note :.

Grazie a chi ha condiviso in rete questa discografia

Info: Per scaricare devi usare un client come uTorrent o Transmission
AnnounceURL
http://tracker.tntvillage.scambioetico.org:2710/announce
Hash 16c7a9071bc0de9f64a05c871e89d18707bce72a
Peers seeds: 4 , leech: 1
Size 380.10 MB
Completato 110x
Aggiunto 29.06.18 - 15:06:41
Uploader   alicerasi
Votazione (Voti: 1)


Condividi questo bittorrent:


html/blog:


bbcode/forum:




Aggiungi Commento